Enable / Włącz Javascript
 Widok 
 Kategorie 
 Nitro Torrent w sieci 
 Top 10 użytkowników 
  Terminator: Genisys (2015) [1080p 3D Bluray Half-SBS x264 TrueHD 7 1 Atmos-RARBG] [ENG]

Terminator: Genisys (2015) [1080p 3D Bluray Half-SBS x264 TrueHD 7 1 Atmos-RARBG] [ENG]
Kategoria: » » »
Dodane: 03/10/2017
Rozmiar: 20.20 GB
Uploader: tomysparow559 (10)
seed(ów): 0
leecher(ów): 0
Pobrane: 2
Komentarzy: 0
Pobierz Torrent Pobierz Torrent
Pobierz [Magnet] Pobierz [Magnet]

Obserwuj
Raportuj
Produkcja: USA
Gatunek: Sci-Fi
Reżyseria: Alan Taylor
Scenariusz: Laeta Kalogridis, Patrick Lussier

Opis:
Rok 2029. Walczący z cyborgami John Connor wysyła w przeszłość Kyle'a Reese'a, by uratował jego matkę przed terminatorem.

Obsada:
Arnold Schwarzenegger - Terminator
Jason Clarke - John Connor
Emilia Clarke - Sarah Connor
Jai Courtney - Kyle Reese
J.K. Simmons - O`Brien
Dayo Okeniyi - Danny Dyson
Matt Smith - Alex

Dane techniczne:
Video
ID : 1
Format : AVC
Format/Info : Advanced Video Codec
Format profile : High@L4.1
Format settings, CABAC : Yes
Format settings, ReFrames : 2 frames
Codec ID : V_MPEG4/ISO/AVC
Duration : 2h 5mn
Nominal bit rate : 15.5 Mbps
Width : 1 920 pixels
Height : 1 080 pixels
Display aspect ratio : 16:9
Frame rate mode : Constant
Frame rate : 23.976 fps
Color space : YUV
Chroma subsampling : 4:2:0
Bit depth : 8 bits
Scan type : Progressive
Bits/(Pixel*Frame) : 0.312
Writing library : x264 core 142
Default : Yes
Forced : No
Color range : Limited
Color primaries : BT.709
Transfer characteristics : BT.709
Matrix coefficients : BT.709

Audio #1
ID : 2
Format : TrueHD
Codec ID : A_TRUEHD
Duration : 2h 5mn
Bit rate mode : Variable
Maximum bit rate : 7 878 Kbps
Channel(s) : 8 channels
Channel positions : Front: L C R, Side: L R, Back: L R, LFE
Sampling rate : 48.0 KHz
Compression mode : Lossless
Language : English
Default : Yes
Forced : No

Audio #2
ID : 3
Format : AC-3
Format/Info : Audio Coding 3
Mode extension : CM (complete main)
Format settings, Endianness : Big
Codec ID : A_AC3
Duration : 2h 5mn
Bit rate mode : Constant
Bit rate : 640 Kbps
Channel(s) : 6 channels
Channel positions : Front: L C R, Side: L R, LFE
Sampling rate : 48.0 KHz
Compression mode : Lossy
Stream size : 575 MiB (3%)
Language : English
Default : No
Forced : No

Audio #3
ID : 4
Format : AC-3
Format/Info : Audio Coding 3
Mode extension : CM (complete main)
Format settings, Endianness : Big
Codec ID : A_AC3
Duration : 2h 5mn
Bit rate mode : Constant
Bit rate : 640 Kbps
Channel(s) : 6 channels
Channel positions : Front: L C R, Side: L R, LFE
Sampling rate : 48.0 KHz
Compression mode : Lossy
Stream size : 575 MiB (3%)
Language : French
Default : No
Forced : No

Audio #4
ID : 5
Format : AC-3
Format/Info : Audio Coding 3
Mode extension : CM (complete main)
Format settings, Endianness : Big
Codec ID : A_AC3
Duration : 2h 5mn
Bit rate mode : Constant
Bit rate : 640 Kbps
Channel(s) : 6 channels
Channel positions : Front: L C R, Side: L R, LFE
Sampling rate : 48.0 KHz
Compression mode : Lossy
Stream size : 575 MiB (3%)
Language : Spanish
Default : No
Forced : No

Audio #5
ID : 6
Format : AC-3
Format/Info : Audio Coding 3
Mode extension : CM (complete main)
Format settings, Endianness : Big
Codec ID : A_AC3
Duration : 2h 5mn
Bit rate mode : Constant
Bit rate : 640 Kbps
Channel(s) : 6 channels
Channel positions : Front: L C R, Side: L R, LFE
Sampling rate : 48.0 KHz
Compression mode : Lossy
Stream size : 575 MiB (3%)
Language : Portuguese
Default : No
Forced : No

Audio #6
ID : 7
Format : AC-3
Format/Info : Audio Coding 3
Mode extension : CM (complete main)
Format settings, Endianness : Big
Codec ID : A_AC3
Duration : 2h 5mn
Bit rate mode : Constant
Bit rate : 640 Kbps
Channel(s) : 6 channels
Channel positions : Front: L C R, Side: L R, LFE
Sampling rate : 48.0 KHz
Compression mode : Lossy
Stream size : 575 MiB (3%)
Language : English
Default : No
Forced : No

Text #1
ID : 8
Format : PGS
Muxing mode : zlib
Codec ID : S_HDMV/PGS
Language : English
Default : No
Forced : No

Text #2
ID : 9
Format : PGS
Muxing mode : zlib
Codec ID : S_HDMV/PGS
Language : English
Default : No
Forced : No

Text #3
ID : 10
Format : PGS
Muxing mode : zlib
Codec ID : S_HDMV/PGS
Language : French
Default : No
Forced : No

Text #4
ID : 11
Format : PGS
Muxing mode : zlib
Codec ID : S_HDMV/PGS
Language : Spanish
Default : No
Forced : No

Text #5
ID : 12
Format : PGS
Muxing mode : zlib
Codec ID : S_HDMV/PGS
Language : Portuguese
Default : No
Forced : No

Text #6
ID : 13
Format : PGS
Muxing mode : zlib
Codec ID : S_HDMV/PGS
Language : Chinese
Default : No
Forced : No

Text #7
ID : 14
Format : PGS
Muxing mode : zlib
Codec ID : S_HDMV/PGS
Language : Chinese
Default : No
Forced : No

Text #8
ID : 15
Format : PGS
Muxing mode : zlib
Codec ID : S_HDMV/PGS
Language : Chinese
Default : No
Forced : No

Text #9
ID : 16
Format : PGS
Muxing mode : zlib
Codec ID : S_HDMV/PGS
Language : Chinese
Default : No
Forced : No

Text #10
ID : 17
Format : PGS
Muxing mode : zlib
Codec ID : S_HDMV/PGS
Language : Malay
Default : No
Forced : No

Menu
00:00:00.000 : en01)00:00:00:000
00:07:40.334 : en02)00:07:40:334
00:14:20.734 : en03)00:14:20:734
00:20:31.563 : en04)00:20:31:563
00:27:48.416 : en05)00:27:48:416
00:34:54.801 : en06)00:34:54:801
00:41:02.626 : en07)00:41:02:626
00:46:28.786 : en000:46:28:786
00:53:05.515 : en09)00:53:05:515
01:01:00.239 : en10)01:01:00:239
01:08:22.556 : en11)01:08:22:556
01:14:43.812 : en12)01:14:43:812
01:21:31.261 : en13)01:21:31:261
01:31:01.706 : en14)01:31:01:706
01:38:42.750 : en15)01:38:42:750
01:45:41.084 : en16)01:45:41:084
01:52:48.970 : en17)01:52:48:970
01:58:00.114 : en101:58:00:114
02:05:42.743 : en19)02:05:42:743


Dostępne napisy
Brak napisów
Szczegóły torrenta
Tracker http://tracker.aletorrenty.pl:2710/announce
Kategoria: » » » [Zgłoś błąd]
Dodane 03-10-2017
Podziękowali:
0 użytkowników 
Podziękuj!
Pokaż / Ukryj pliki:
Nazwa pliku Rozmiar
Terminator.Genisys.2015.1080p.3D.BluRay.Half-SBS.x264.TrueHD.7.1.Atmos-RARBG.nfo 14.47 KB
Terminator.Genisys.2015.1080p.3D.BluRay.Half-SBS.x264.TrueHD.7.1.Atmos-RARBG.mkv 20.20 GB
2 plików
Brak komentarzy...